<?xml version="1.0" standalone="no"?>
<!DOCTYPE svg PUBLIC "-//W3C//DTD SVG 1.1//EN" "http://www.w3.org/Graphics/SVG/1.1/DTD/svg11.dtd" >
<svg xmlns="http://www.w3.org/2000/svg">
<metadata></metadata>
<defs>
<font id="mars_needs_cunnilingusregular" horiz-adv-x="1280" >
<font-face units-per-em="2048" ascent="1536" descent="-512" />
<missing-glyph horiz-adv-x="768" />
<glyph horiz-adv-x="0" />
<glyph unicode="&#xd;" horiz-adv-x="512" />
<glyph unicode=" "  horiz-adv-x="768" />
<glyph unicode="&#x09;" horiz-adv-x="768" />
<glyph unicode="&#xa0;" horiz-adv-x="768" />
<glyph unicode="!" d="M0 0v256h256v-256h-256zM256 512v768h768v-256h-256v-256h-256v-256h-256z" />
<glyph unicode="&#x22;" horiz-adv-x="1024" d="M0 768v512h256v-512h-256zM512 768v512h256v-512h-256z" />
<glyph unicode="#" horiz-adv-x="1536" d="M0 256v256h256v256h-256v256h256v256h256v-256h256v256h256v-256h256v-256h-256v-256h256v-256h-256v-256h-256v256h-256v-256h-256v256h-256zM512 512h256v256h-256v-256z" />
<glyph unicode="$" horiz-adv-x="1536" d="M0 256v256h512v256h-256v256h256v512h256v-256h512v-256h-512v-256h256v-512h-256v-256h-256v256h-512z" />
<glyph unicode="%" d="M0 0v256h256v-256h-256zM0 768v256h256v-256h-256zM256 256v256h256v-256h-256zM512 512v256h256v-256h-256zM768 0v256h256v-256h-256zM768 768v256h256v-256h-256z" />
<glyph unicode="&#x26;" horiz-adv-x="1536" d="M0 0v768h256v512h768v-512h256v-256h-256v-256h256v-256h-512v256h-255v-256h-513zM256 256h256v256h-256v-256zM512 768h256v256h-256v-256z" />
<glyph unicode="'" horiz-adv-x="512" d="M0 768v512h256v-512h-256z" />
<glyph unicode="(" horiz-adv-x="1024" d="M0 256v768h256v256h512v-256h-256v-768h256v-256h-512v256h-256z" />
<glyph unicode=")" horiz-adv-x="1024" d="M0 0v256h256v768h-256v256h512v-256h256v-768h-256v-256h-512z" />
<glyph unicode="*" horiz-adv-x="1536" d="M0 512v256h256v256h256v256h256v-256h256v-256h256v-256h-256v-256h-256v-256h-256v256h-256v256h-256z" />
<glyph unicode="+" horiz-adv-x="1536" d="M0 512v256h512v512h256v-512h512v-256h-512v-512h-256v512h-512z" />
<glyph unicode="," horiz-adv-x="768" d="M0 0v256h256v256h256v-512h-512z" />
<glyph unicode="-" horiz-adv-x="768" d="M0 512v256h512v-256h-512z" />
<glyph unicode="." horiz-adv-x="512" d="M0 0v256h256v-256h-256z" />
<glyph unicode="/" d="M0 0v256h256v-256h-256zM256 256v256h256v-256h-256zM512 512v256h256v-256h-256zM768 768v256h256v-256h-256z" />
<glyph unicode="0" d="M0 0v1280h1024v-1280h-1024zM256 256h256v512h-256v-512z" />
<glyph unicode="1" d="M0 1024v256h768v-1280h-512v1024h-256z" />
<glyph unicode="2" d="M0 0v512h256v256h256v256h-512v256h768v-256h256v-512h-256v-256h256v-256h-1024z" />
<glyph unicode="3" d="M0 0v256h512v256h-256v256h256v256h-512v256h768v-512h256v-768h-1024z" />
<glyph unicode="4" d="M0 256v768h256v-256h256v512h512v-1280h-512v256h-512z" />
<glyph unicode="5" d="M0 0v256h256v256h-256v768h1024v-256h-512v-256h512v-512h-256v-256h-768z" />
<glyph unicode="6" d="M0 0v1280h768v-256h-256v-256h512v-768h-1024zM256 256h256v256h-256v-256z" />
<glyph unicode="7" d="M0 0v512h256v256h256v256h-512v256h1024v-512h-256v-256h-256v-512h-512z" />
<glyph unicode="8" d="M0 0v1024h256v256h768v-1280h-1024zM256 256h256v256h-256v-256zM512 768h256v256h-256v-256z" />
<glyph unicode="9" d="M0 256v1024h1024v-1280h-512v256h-512zM512 768h256v256h-256v-256z" />
<glyph unicode=":" horiz-adv-x="512" d="M0 256v256h256v-256h-256zM0 768v256h256v-256h-256z" />
<glyph unicode=";" horiz-adv-x="512" d="M0 0v512h256v-512h-256zM0 768v256h256v-256h-256z" />
<glyph unicode="&#x3c;" horiz-adv-x="1024" d="M0 512v256h256v-256h-256zM256 256v256h256v-256h-256zM256 768v256h256v-256h-256zM512 0v256h256v-256h-256zM512 1024v256h256v-256h-256z" />
<glyph unicode="=" d="M0 256v256h1024v-256h-1024zM0 768v256h1024v-256h-1024z" />
<glyph unicode="&#x3e;" horiz-adv-x="1024" d="M0 0v256h256v-256h-256zM0 1024v256h256v-256h-256zM256 256v256h256v-256h-256zM256 768v256h256v-256h-256zM512 512v256h256v-256h-256z" />
<glyph unicode="?" d="M0 0v256h256v-256h-256zM0 1024v256h1024v-512h-256v-256h-512v256h256v256h-512z" />
<glyph unicode="@" horiz-adv-x="1536" d="M0 256v768h256v-256h512v-768h-513v256h-255zM256 256h256v256h-256v-256zM256 1024v256h768v-256h-768zM1024 256v768h256v-768h-256z" />
<glyph unicode="A" d="M0 0v1024h256v256h768v-1280h-256v256h-256v-256h-512zM512 512h256v256h-256v-256z" />
<glyph unicode="B" d="M0 0v1280h768v-512h256v-768h-1024zM256 768h256v256h-256v-256zM512 256h256v256h-256v-256z" />
<glyph unicode="C" d="M0 0v1024h256v-768h256v256h512v-512h-1024zM256 1024v256h768v-512h-512v256h-256z" />
<glyph unicode="D" d="M0 0v1280h768v-256h256v-768h-256v-256h-768zM256 256h256v512h-256v-512z" />
<glyph unicode="E" d="M0 0v1024h256v-256h768v-256h-512v-256h512v-256h-1024zM256 1024v256h768v-256h-768z" />
<glyph unicode="F" d="M0 0v1024h256v-256h512v-256h-256v-512h-512zM256 1024v256h768v-256h-768z" />
<glyph unicode="G" d="M0 256v768h256v256h768v-256h-512v-512h256v256h256v-768h-768v256h-256z" />
<glyph unicode="H" d="M0 0v1280h512v-768h256v768h256v-1280h-256v256h-256v-256h-512z" />
<glyph unicode="I" d="M0 0v256h256v768h-256v256h1024v-256h-256v-768h256v-256h-1024z" />
<glyph unicode="J" d="M0 0v256h512v768h-512v256h1024v-1024h-256v-256h-768z" />
<glyph unicode="K" d="M0 0v1280h256v-256h256v256h512v-256h-256v-256h256v-768h-512v512h-256v-512h-256z" />
<glyph unicode="L" d="M0 0v1280h512v-1024h512v-256h-1024z" />
<glyph unicode="M" horiz-adv-x="1536" d="M0 0v1280h512v-256h256v256h256v-256h256v-1024h-256v512h-256v-512h-256v256h-256v-256h-256z" />
<glyph unicode="N" d="M0 0v1280h256v-256h256v-256h256v512h256v-1280h-512v256h-256v-256h-256z" />
<glyph unicode="O" d="M0 0v1280h1024v-1280h-1024zM512 256h256v512h-256v-512z" />
<glyph unicode="P" d="M0 0v1280h768v-256h256v-512h-255v-256h-257v-256h-512zM512 512h256v256h-256v-256z" />
<glyph unicode="Q" d="M0 256v768h256v256h512v-256h256v-512h-256v-256h256v-256h-769v256h-255zM256 256h256v512h-256v-512z" />
<glyph unicode="R" d="M0 0v1280h768v-256h256v-256h-256v-256h256v-512h-256v256h-256v-256h-512zM256 768h256v256h-256v-256z" />
<glyph unicode="S" d="M0 0v256h256v256h-256v512h256v256h768v-256h-512v-256h512v-512h-256v-256h-768z" />
<glyph unicode="T" d="M0 1024v256h1024v-256h-256v-1024h-512v1024h-256z" />
<glyph unicode="U" d="M0 0v1280h256v-1024h256v1024h512v-1024h-256v-256h-768z" />
<glyph unicode="V" d="M0 0v1280h512v-1024h256v-256h-768zM768 256v1024h256v-1024h-256z" />
<glyph unicode="W" horiz-adv-x="1536" d="M0 256v1024h256v-256h256v256h256v-256h256v256h256v-1024h-256v-256h-256v256h-256v-256h-256v256h-256z" />
<glyph unicode="X" d="M0 0v768h256v256h-256v256h512v-256h256v256h256v-512h-256v-256h256v-512h-512v512h-256v-512h-256z" />
<glyph unicode="Y" d="M0 0v512h512v256h-512v512h512v-256h256v256h256v-1024h-256v-256h-768z" />
<glyph unicode="Z" d="M0 0v768h768v256h-512v256h768v-768h-512v-256h512v-256h-1024z" />
<glyph unicode="[" horiz-adv-x="1024" d="M0 0v1280h768v-256h-256v-768h256v-256h-768z" />
<glyph unicode="\" d="M0 768v256h256v-256h-256zM256 512v256h256v-256h-256zM512 256v256h256v-256h-256zM768 0v256h256v-256h-256z" />
<glyph unicode="]" horiz-adv-x="1024" d="M0 0v256h256v768h-256v256h768v-1280h-768z" />
<glyph unicode="^" horiz-adv-x="1536" d="M0 512v256h256v-256h-256zM0 512v256h256v-256h-256zM256 768v256h256v-256h-256zM512 1024v256h256v-256h-256zM768 768v256h256v-256h-256zM1024 512v256h256v-256h-256z" />
<glyph unicode="_" d="M0 0v256h1024v-256h-1024z" />
<glyph unicode="`" horiz-adv-x="512" d="M0 768v512h256v-512h-256z" />
<glyph unicode="a" d="M0 0v1024h256v256h768v-1280h-256v256h-256v-256h-512zM512 512h256v256h-256v-256z" />
<glyph unicode="b" d="M0 0v1280h768v-512h256v-768h-1024zM256 768h256v256h-256v-256zM512 256h256v256h-256v-256z" />
<glyph unicode="c" d="M0 0v1024h256v-768h256v256h512v-512h-1024zM256 1024v256h768v-512h-512v256h-256z" />
<glyph unicode="d" d="M0 0v1280h768v-256h256v-768h-256v-256h-768zM256 256h256v512h-256v-512z" />
<glyph unicode="e" d="M0 0v1024h256v-256h768v-256h-512v-256h512v-256h-1024zM256 1024v256h768v-256h-768z" />
<glyph unicode="f" d="M0 0v1024h256v-256h512v-256h-256v-512h-512zM256 1024v256h768v-256h-768z" />
<glyph unicode="g" d="M0 256v768h256v256h768v-256h-512v-512h256v256h256v-768h-768v256h-256z" />
<glyph unicode="h" d="M0 0v1280h512v-768h256v768h256v-1280h-256v256h-256v-256h-512z" />
<glyph unicode="i" d="M0 0v256h256v768h-256v256h1024v-256h-256v-768h256v-256h-1024z" />
<glyph unicode="j" d="M0 0v256h512v768h-512v256h1024v-1024h-256v-256h-768z" />
<glyph unicode="k" d="M0 0v1280h256v-256h256v256h512v-256h-256v-256h256v-768h-512v512h-256v-512h-256z" />
<glyph unicode="l" d="M0 0v1280h512v-1024h512v-256h-1024z" />
<glyph unicode="m" horiz-adv-x="1536" d="M0 0v1280h512v-256h256v256h256v-256h256v-1024h-256v512h-256v-512h-256v256h-256v-256h-256z" />
<glyph unicode="n" d="M0 0v1280h256v-256h256v-256h256v512h256v-1280h-512v256h-256v-256h-256z" />
<glyph unicode="o" d="M0 0v1280h1024v-1280h-1024zM512 256h256v512h-256v-512z" />
<glyph unicode="p" d="M0 0v1280h768v-256h256v-512h-255v-256h-257v-256h-512zM512 512h256v256h-256v-256z" />
<glyph unicode="q" d="M0 256v768h256v256h512v-256h256v-512h-256v-256h256v-256h-769v256h-255zM256 256h256v512h-256v-512z" />
<glyph unicode="r" d="M0 0v1280h768v-256h256v-256h-256v-256h256v-512h-256v256h-256v-256h-512zM256 768h256v256h-256v-256z" />
<glyph unicode="s" d="M0 0v256h256v256h-256v512h256v256h768v-256h-512v-256h512v-512h-256v-256h-768z" />
<glyph unicode="t" d="M0 1024v256h1024v-256h-256v-1024h-512v1024h-256z" />
<glyph unicode="u" d="M0 0v1280h256v-1024h256v1024h512v-1024h-256v-256h-768z" />
<glyph unicode="v" d="M0 0v1280h512v-1024h256v-256h-768zM768 256v1024h256v-1024h-256z" />
<glyph unicode="w" horiz-adv-x="1536" d="M0 256v1024h256v-256h256v256h256v-256h256v256h256v-1024h-256v-256h-256v256h-256v-256h-256v256h-256z" />
<glyph unicode="x" d="M0 0v768h256v256h-256v256h512v-256h256v256h256v-512h-256v-256h256v-512h-512v512h-256v-512h-256z" />
<glyph unicode="y" d="M0 0v512h512v256h-512v512h512v-256h256v256h256v-1024h-256v-256h-768z" />
<glyph unicode="z" d="M0 0v768h768v256h-512v256h768v-768h-512v-256h512v-256h-1024z" />
<glyph unicode="{" horiz-adv-x="1024" d="M0 512v256h256v512h512v-256h-256v-768h256v-256h-512v512h-256z" />
<glyph unicode="|" horiz-adv-x="512" d="M0 0v1280h256v-1280h-256z" />
<glyph unicode="}" horiz-adv-x="1024" d="M0 0v256h256v768h-256v256h512v-512h256v-256h-256v-512h-512z" />
<glyph unicode="~" d="M0 768v256h256v-256h-256zM256 1024v256h256v-256h-256zM512 768v256h256v-256h-256zM768 1024v256h256v-256h-256z" />
<glyph unicode="&#xa1;" horiz-adv-x="672" />
<glyph unicode="&#xa2;" horiz-adv-x="1139" />
<glyph unicode="&#xa3;" horiz-adv-x="1014" />
<glyph unicode="&#xa4;" horiz-adv-x="1014" />
<glyph unicode="&#xa5;" horiz-adv-x="1262" />
<glyph unicode="&#xa6;" horiz-adv-x="1014" />
<glyph unicode="&#xa7;" horiz-adv-x="1014" />
<glyph unicode="&#xa8;" horiz-adv-x="1024" />
<glyph unicode="&#xa9;" horiz-adv-x="1674" />
<glyph unicode="&#xaa;" horiz-adv-x="648" />
<glyph unicode="&#xab;" horiz-adv-x="944" />
<glyph unicode="&#xac;" horiz-adv-x="1014" />
<glyph unicode="&#xad;" horiz-adv-x="768" d="M0 512v256h512v-256h-512z" />
<glyph unicode="&#xae;" horiz-adv-x="1674" />
<glyph unicode="&#xaf;" horiz-adv-x="670" />
<glyph unicode="&#xb0;" horiz-adv-x="674" />
<glyph unicode="&#xb1;" horiz-adv-x="1014" />
<glyph unicode="&#xb2;" horiz-adv-x="1014" />
<glyph unicode="&#xb3;" horiz-adv-x="1014" />
<glyph unicode="&#xb4;" horiz-adv-x="1024" />
<glyph unicode="&#xb5;" horiz-adv-x="1180" />
<glyph unicode="&#xb6;" horiz-adv-x="1024" />
<glyph unicode="&#xb7;" horiz-adv-x="508" />
<glyph unicode="&#xb8;" horiz-adv-x="1024" />
<glyph unicode="&#xb9;" horiz-adv-x="1014" />
<glyph unicode="&#xba;" horiz-adv-x="718" />
<glyph unicode="&#xbb;" horiz-adv-x="944" />
<glyph unicode="&#xbc;" horiz-adv-x="1708" />
<glyph unicode="&#xbd;" horiz-adv-x="1964" />
<glyph unicode="&#xbe;" horiz-adv-x="1708" />
<glyph unicode="&#xbf;" horiz-adv-x="748" />
<glyph unicode="&#xc0;" horiz-adv-x="1540" />
<glyph unicode="&#xc1;" horiz-adv-x="1540" />
<glyph unicode="&#xc2;" horiz-adv-x="1540" />
<glyph unicode="&#xc3;" horiz-adv-x="1540" />
<glyph unicode="&#xc4;" horiz-adv-x="1540" />
<glyph unicode="&#xc5;" horiz-adv-x="1540" />
<glyph unicode="&#xc6;" horiz-adv-x="2118" />
<glyph unicode="&#xc7;" horiz-adv-x="1399" />
<glyph unicode="&#xc8;" horiz-adv-x="1151" />
<glyph unicode="&#xc9;" horiz-adv-x="1151" />
<glyph unicode="&#xca;" horiz-adv-x="1151" />
<glyph unicode="&#xcb;" horiz-adv-x="1151" />
<glyph unicode="&#xcc;" horiz-adv-x="657" />
<glyph unicode="&#xcd;" horiz-adv-x="657" />
<glyph unicode="&#xce;" horiz-adv-x="657" />
<glyph unicode="&#xcf;" horiz-adv-x="657" />
<glyph unicode="&#xd0;" horiz-adv-x="1518" />
<glyph unicode="&#xd1;" horiz-adv-x="1554" />
<glyph unicode="&#xd2;" horiz-adv-x="1614" />
<glyph unicode="&#xd3;" horiz-adv-x="1614" />
<glyph unicode="&#xd4;" horiz-adv-x="1614" />
<glyph unicode="&#xd5;" horiz-adv-x="1614" />
<glyph unicode="&#xd6;" horiz-adv-x="1614" />
<glyph unicode="&#xd7;" horiz-adv-x="1014" />
<glyph unicode="&#xd8;" horiz-adv-x="1614" />
<glyph unicode="&#xd9;" horiz-adv-x="1501" />
<glyph unicode="&#xda;" horiz-adv-x="1501" />
<glyph unicode="&#xdb;" horiz-adv-x="1501" />
<glyph unicode="&#xdc;" horiz-adv-x="1501" />
<glyph unicode="&#xdd;" horiz-adv-x="1233" />
<glyph unicode="&#xde;" horiz-adv-x="1120" />
<glyph unicode="&#xdf;" horiz-adv-x="1251" />
<glyph unicode="&#xe0;" horiz-adv-x="922" />
<glyph unicode="&#xe1;" horiz-adv-x="922" />
<glyph unicode="&#xe2;" horiz-adv-x="922" />
<glyph unicode="&#xe3;" horiz-adv-x="922" />
<glyph unicode="&#xe4;" horiz-adv-x="922" />
<glyph unicode="&#xe5;" horiz-adv-x="922" />
<glyph unicode="&#xe6;" horiz-adv-x="1454" />
<glyph unicode="&#xe7;" horiz-adv-x="905" />
<glyph unicode="&#xe8;" horiz-adv-x="909" />
<glyph unicode="&#xe9;" horiz-adv-x="909" />
<glyph unicode="&#xea;" horiz-adv-x="909" />
<glyph unicode="&#xeb;" horiz-adv-x="909" />
<glyph unicode="&#xec;" horiz-adv-x="514" />
<glyph unicode="&#xed;" horiz-adv-x="514" />
<glyph unicode="&#xee;" horiz-adv-x="514" />
<glyph unicode="&#xef;" horiz-adv-x="514" />
<glyph unicode="&#xf0;" horiz-adv-x="1139" />
<glyph unicode="&#xf1;" horiz-adv-x="1108" />
<glyph unicode="&#xf2;" horiz-adv-x="1010" />
<glyph unicode="&#xf3;" horiz-adv-x="1010" />
<glyph unicode="&#xf4;" horiz-adv-x="1010" />
<glyph unicode="&#xf5;" horiz-adv-x="1010" />
<glyph unicode="&#xf6;" horiz-adv-x="1010" />
<glyph unicode="&#xf7;" horiz-adv-x="1024" d="M0 512v256h768v-256h-768zM256 0v256h256v-256h-256zM256 1024v256h256v-256h-256z" />
<glyph unicode="&#xf8;" horiz-adv-x="1010" />
<glyph unicode="&#xf9;" horiz-adv-x="1059" />
<glyph unicode="&#xfa;" horiz-adv-x="1059" />
<glyph unicode="&#xfb;" horiz-adv-x="1059" />
<glyph unicode="&#xfc;" horiz-adv-x="1059" />
<glyph unicode="&#xfd;" horiz-adv-x="868" />
<glyph unicode="&#xfe;" horiz-adv-x="1010" />
<glyph unicode="&#xff;" horiz-adv-x="868" />
<glyph unicode="&#x2c6;" horiz-adv-x="1024" />
<glyph unicode="&#x2dc;" d="M0 768v256h256v-256h-256zM256 1024v256h256v-256h-256zM512 768v256h256v-256h-256zM768 1024v256h256v-256h-256z" />
<glyph unicode="&#x2000;" horiz-adv-x="768" />
<glyph unicode="&#x2001;" horiz-adv-x="1536" />
<glyph unicode="&#x2002;" horiz-adv-x="768" />
<glyph unicode="&#x2003;" horiz-adv-x="1536" />
<glyph unicode="&#x2004;" horiz-adv-x="512" />
<glyph unicode="&#x2005;" horiz-adv-x="384" />
<glyph unicode="&#x2006;" horiz-adv-x="256" />
<glyph unicode="&#x2007;" horiz-adv-x="256" />
<glyph unicode="&#x2008;" horiz-adv-x="192" />
<glyph unicode="&#x2009;" horiz-adv-x="307" />
<glyph unicode="&#x200a;" horiz-adv-x="85" />
<glyph unicode="&#x2010;" horiz-adv-x="768" d="M0 512v256h512v-256h-512z" />
<glyph unicode="&#x2011;" horiz-adv-x="768" d="M0 512v256h512v-256h-512z" />
<glyph unicode="&#x2012;" horiz-adv-x="768" d="M0 512v256h512v-256h-512z" />
<glyph unicode="&#x2013;" d="M0 512v256h1024v-256h-1024z" />
<glyph unicode="&#x2014;" d="M0 512v256h1024v-256h-1024z" />
<glyph unicode="&#x2018;" horiz-adv-x="768" d="M0 768v512h512v-256h-256v-256h-256z" />
<glyph unicode="&#x2019;" horiz-adv-x="768" d="M0 768v256h256v256h256v-512h-512z" />
<glyph unicode="&#x201a;" horiz-adv-x="557" />
<glyph unicode="&#x201c;" horiz-adv-x="1536" d="M0 768v512h512v-256h-256v-256h-256zM768 768v512h512v-256h-256v-256h-256z" />
<glyph unicode="&#x201d;" horiz-adv-x="1536" d="M0 768v256h256v256h256v-512h-512zM768 768v256h256v256h256v-512h-512z" />
<glyph unicode="&#x201e;" horiz-adv-x="910" />
<glyph unicode="&#x2022;" horiz-adv-x="1024" d="M0 512v256h256v256h256v-256h256v-256h-256v-256h-256v256h-256z" />
<glyph unicode="&#x2026;" horiz-adv-x="1536" d="M0 0v256h256v-256h-256zM512 0v256h256v-256h-256zM1024 0v256h256v-256h-256z" />
<glyph unicode="&#x202f;" horiz-adv-x="307" />
<glyph unicode="&#x2039;" horiz-adv-x="631" />
<glyph unicode="&#x203a;" horiz-adv-x="631" />
<glyph unicode="&#x205f;" horiz-adv-x="384" />
<glyph unicode="&#x20ac;" horiz-adv-x="1014" />
<glyph unicode="&#x2122;" horiz-adv-x="1497" />
<glyph unicode="&#x25fc;" d="M0 0v1280h1280v-1280h-1280z" />
</font>
</defs>
</svg>
